<?xml version="1.0" standalone="no"?>
<!DOCTYPE svg PUBLIC "-//W3C//DTD SVG 1.1//EN" "http://www.w3.org/Graphics/SVG/1.1/DTD/svg11.dtd" >
<svg xmlns="http://www.w3.org/2000/svg">
<metadata>Generated by IcoMoon</metadata>
<defs>
<font id="LINKGOODS-font-icon" horiz-adv-x="1024">
<font-face units-per-em="1024" ascent="960" descent="-64" />
<missing-glyph horiz-adv-x="1024" />
<glyph unicode="&#x20;" horiz-adv-x="512" d="" />
<glyph unicode="&#xe900;" glyph-name="arrow-down" d="M565.354 746.646v-468.56l79.625 79.622 4 3.688c20.947 17.086 51.846 15.83 71.373-3.688 20.832-20.828 20.832-54.611 0-75.437l-170.623-170.624-4.063-3.686c-20.948-17.088-51.848-15.84-71.375 3.686l-170.688 170.624-3.625 4.064c-17.092 20.941-15.895 51.842 3.625 71.373 19.52 19.52 50.428 20.755 71.375 3.688l4.063-3.688 79.625-79.622v468.56c0 29.448 23.867 53.364 53.312 53.375 29.455 0 53.375-23.919 53.375-53.375z" />
<glyph unicode="&#xe901;" glyph-name="arrow-up" d="M458.646 149.35v468.566l-79.625-79.625-4-3.688c-20.944-17.086-51.847-15.83-71.375 3.688-20.828 20.828-20.828 54.609 0 75.437l170.625 170.625 3.938 3.563c9.49 7.775 21.437 12.062 33.812 12.062 14.137-0.005 27.69-5.628 37.687-15.625l170.689-170.625 3.622-4.063c17.094-20.944 15.898-51.844-3.622-71.375-19.52-19.52-50.426-20.756-71.373-3.688l-4.064 3.688-79.627 79.625v-468.566c0-29.446-23.867-53.363-53.312-53.37-29.455 0-53.375 23.917-53.375 53.37z" />
<glyph unicode="&#xe902;" glyph-name="E-mail" d="M853.331 581.626l-317.665-211.791c-12.546-8.365-28.417-9.405-41.791-3.125l-5.542 3.125-317.667 211.791v-346.957c0-11.315 4.499-22.17 12.5-30.17s18.851-12.499 30.167-12.499h597.335c11.315 0 22.163 4.499 30.163 12.499s12.499 18.854 12.499 30.17v346.957zM209.125 703.792c-9.771-0.968-18.955-5.288-25.958-12.291-3.126-3.126-5.711-6.688-7.708-10.542l336.541-224.333 336.499 224.333c-1.997 3.848-4.544 7.421-7.667 10.542-7.002 7.004-16.186 11.324-25.958 12.291l-4.205 0.209-601.544-0.209zM938.669 234.669c0-33.952-13.498-66.496-37.504-90.502-24-24.006-56.55-37.498-90.496-37.498h-597.335c-33.948 0-66.495 13.491-90.5 37.498s-37.5 56.55-37.5 90.502v426.665c0 33.948 13.495 66.495 37.5 90.5s56.552 37.5 90.5 37.5h597.335c33.946 0 66.496-13.495 90.496-37.5 24.006-24.005 37.504-56.552 37.504-90.5v-426.665z" />
<glyph unicode="&#xe903;" glyph-name="long-text" d="M682.669 234.669c23.565 0 42.662-19.104 42.662-42.669s-19.098-42.669-42.662-42.669h-512.002c-23.564 0-42.667 19.104-42.667 42.669s19.103 42.669 42.667 42.669h512.002zM853.331 490.666c23.565 0 42.669-19.103 42.669-42.667s-19.104-42.667-42.669-42.667h-682.664c-23.564 0-42.667 19.103-42.667 42.667s19.103 42.667 42.667 42.667h682.664zM853.331 746.666c23.565 0 42.669-19.103 42.669-42.667s-19.104-42.667-42.669-42.667h-682.664c-23.564 0-42.667 19.103-42.667 42.667s19.103 42.667 42.667 42.667h682.664z" />
<glyph unicode="&#xe904;" glyph-name="multiple-choice" d="M853.331 746.666c0 11.316-4.499 22.165-12.499 30.166s-18.848 12.5-30.163 12.5h-597.336c-11.316 0-22.165-4.499-30.166-12.5s-12.5-18.851-12.5-30.166v-597.335c0-11.315 4.499-22.163 12.5-30.163 8.001-8.006 18.851-12.499 30.166-12.499h597.336c11.315 0 22.163 4.493 30.163 12.499 8 8 12.499 18.848 12.499 30.163v597.335zM609.834 563.5c16.662 16.662 43.67 16.662 60.336 0 16.659-16.662 16.659-43.671 0-60.333l-170.669-170.667c-16.662-16.659-43.671-16.659-60.333 0l-85.333 85.334-2.917 3.25c-13.668 16.758-12.704 41.462 2.917 57.083s40.324 16.585 57.083 2.917l3.25-2.917 55.167-55.166 140.5 140.5zM938.669 149.331c0-33.946-13.498-66.496-37.504-90.496-24-24.006-56.55-37.504-90.496-37.504h-597.336c-33.948 0-66.495 13.498-90.5 37.504-24.004 24-37.5 56.55-37.5 90.496v597.335c0 33.948 13.496 66.495 37.5 90.5s56.552 37.5 90.5 37.5h597.336c33.946 0 66.496-13.496 90.496-37.5 24.006-24.004 37.504-56.552 37.504-90.5v-597.335z" />
<glyph unicode="&#xe905;" glyph-name="name" d="M298.666 575.999c0 62.652-11.187 78.854-14.166 81.834-1.547 1.547-3.707 3.5-28.5 3.5-8.384 0-43.834-14.792-42.667-84.625l0.833-13.459c3.469-32.474 17.005-72.225 35.583-112 0.458-0.98 0.955-1.941 1.417-2.916 0.202 0.323 0.465 0.636 0.666 0.958 33.53 53.652 46.833 95.394 46.833 126.708zM384 575.999c0-54.014-22.258-111.839-59.834-171.958-7.96-12.735-16.809-25.659-26.333-38.916 4.971-7.52 9.56-14.12 13.625-19.542l11.084-14.333c10.662-13.406 20.116-23.985 28.542-31.998 11.548-10.982 18.874-14.944 22.417-16.128 1.725-0.576 1.154-0.294 1.292-0.205 1.94 0.998 7.702 5.075 16.375 18.080l85.333 128.001 4.083 5.208c10.317 11.231 26.038 16.243 41.208 12.666 17.348-4.096 30.331-18.563 32.542-36.25l2.792-19.208c7.14-42.708 18.596-71.075 31.667-88.498 12.081-16.109 26.269-23.994 45.416-25.293 2.261 1.267 5.364 3.098 9.293 5.747 10.438 7.046 23.206 16.806 36.915 27.546 13.101 10.255 27.373 21.653 39.085 30.206 5.843 4.267 12.090 8.58 17.914 12 2.899 1.699 6.534 3.675 10.541 5.333 3.155 1.304 10.63 4.209 20.045 4.209 13.926 0 26.97-4.292 37.581-8.959 11.117-4.886 22.739-11.615 34.63-19.541 17.837-11.896 38.182-27.734 60.87-47.165l23.462-20.582 3.078-3.085c14.547-16.006 14.899-40.781 0.128-57.21-14.765-16.422-39.418-18.707-56.877-5.958l-3.418 2.752-22.042 19.418c-20.909 17.894-38.381 31.386-52.538 40.832-8.211 5.472-14.707 9.082-19.584 11.418-1.043-0.742-2.234-1.485-3.462-2.381-10.189-7.443-22.694-17.389-36.832-28.454-13.536-10.598-28.474-22.17-41.747-31.123-6.598-4.454-13.754-8.909-20.749-12.422-5.382-2.694-16.979-8.205-30.502-8.205-48.977 0-90.065 20.531-119.459 59.706-10.736 14.317-19.663 30.778-27 49.043l-31.375-47.085c-12.659-18.989-28.235-36.25-48.291-46.579-21.834-11.251-45.146-12.288-67.375-4.877-20.452 6.822-38.47 20.198-54.25 35.206-12.072 11.488-24.257 25.274-36.625 40.832l-12.417 16.173c-0.207 0.275-0.417 0.55-0.625 0.832-24.989-29.133-53.1-59.437-84.417-90.752-16.662-16.659-43.671-16.659-60.333 0-16.662 16.666-16.662 43.674 0 60.333 37.853 37.856 70.066 73.311 97 106.251-7.649 13.963-15.277 28.756-22.417 44.042-21.334 45.675-40.913 100.073-44 150.209l-0.417 9.958c-1.562 93.578 51.052 171.375 128 171.375 17.873 0 58.38 1.953 88.833-28.5 29.021-29.021 39.167-76.819 39.167-142.167z" />
<glyph unicode="&#xe906;" glyph-name="list" d="M609.449 863.45c5.883-1.126 11.361-3.912 15.8-8.050l228.603-213.35c6.472-6.051 10.148-14.537 10.148-23.4v-469.3c0-31.862-13.583-61.942-36.951-83.753-23.291-21.734-54.451-33.597-86.497-33.597h-457.102c-32.049 0-63.21 11.863-86.5 33.597-20.448 19.087-33.384 44.503-36.3 71.9l-0.65 11.853v597.3c0 31.859 13.585 61.943 36.95 83.75 23.289 21.735 54.451 33.6 86.5 33.6h319.998l6.001-0.55zM283.45 800c-16.446 0-31.847-6.131-42.85-16.4-10.919-10.198-16.6-23.551-16.6-36.95v-597.3l0.25-5.048c1.24-11.663 6.8-22.984 16.35-31.903 11.002-10.271 26.403-16.399 42.85-16.399h457.102c16.445 0 31.846 6.129 42.849 16.399 10.916 10.199 16.599 23.552 16.599 36.951v437.3h-150.851c-19.917 0-39.434 7.375-54.149 21.1-14.792 13.805-23.552 33.057-23.552 53.6v138.65h-287.998zM288 224c17.673 0 32-14.326 32-32s-14.327-32-32-32c-17.673 0-32 14.326-32 32s14.327 32 32 32zM701.901 224c17.659-0.015 32-14.336 32-32 0-17.674-14.377-32-32.051-32h-319.999c-17.662 0.015-31.95 14.336-31.95 32 0 17.674 14.327 32 32 32h320.001zM288 364.8c17.673 0 32-14.326 32-32s-14.327-32-32-32c-17.673 0-32 14.326-32 32s14.327 32 32 32zM701.901 364.8c17.659-0.015 32-14.336 32-32 0-17.674-14.377-32-32.051-32h-319.999c-17.662 0.015-31.95 14.336-31.95 32 0 17.674 14.327 32 32 32h320.001zM288 505.6c17.673 0 32-14.327 32-32s-14.327-32-32-32-31.999 14.328-32 32c0 17.673 14.327 32 32 32zM701.901 505.6c17.659-0.013 32-14.335 32-32 0-17.672-14.377-32-32.051-32h-319.999c-17.661 0.015-31.949 14.336-31.95 32 0 17.673 14.327 32 32 32h320.001zM635.448 661.35c0-2.088 0.845-4.602 3.2-6.8 2.432-2.266 6.18-3.9 10.501-3.9h101.652l-115.354 107.7v-97z" />
<glyph unicode="&#xe907;" glyph-name="look-list" d="M162.134 191.549v0.451c0 28.278 22.923 51.2 51.2 51.2s51.2-22.922 51.2-51.2v-0.451c-0.013-28.268-22.931-51.2-51.2-51.2s-51.188 22.932-51.2 51.2zM853.335 243.2l5.248-0.251c25.81-2.627 45.952-24.443 45.952-50.949s-20.142-48.323-45.952-50.949l-5.248-0.251h-469.352c-28.269 0.010-51.2 22.927-51.2 51.2s22.931 51.19 51.2 51.2h469.352zM162.134 447.549v0.451c0 28.277 22.923 51.2 51.2 51.2s51.2-22.923 51.2-51.2v-0.451c-0.013-28.268-22.931-51.2-51.2-51.2s-51.188 22.932-51.2 51.2zM853.335 499.2l5.248-0.25c25.81-2.628 45.952-24.445 45.952-50.95s-20.142-48.323-45.952-50.949l-5.248-0.251h-469.352c-28.269 0.010-51.2 22.927-51.2 51.2s22.931 51.191 51.2 51.2h469.352zM162.134 703.55v0.45c0 28.277 22.923 51.2 51.2 51.2s51.2-22.923 51.2-51.2v-0.45c-0.013-28.266-22.931-51.2-51.2-51.2s-51.188 22.934-51.2 51.2zM853.335 755.2l5.248-0.25c25.81-2.628 45.952-24.445 45.952-50.95s-20.142-48.322-45.952-50.95l-5.248-0.25h-469.352c-28.269 0.009-51.2 22.928-51.2 51.2s22.931 51.191 51.2 51.2h469.352z" />
<glyph unicode="&#xe908;" glyph-name="short-text" d="M554.667 362.666c23.564 0 42.666-19.103 42.666-42.666 0-23.565-19.102-42.669-42.666-42.669h-384c-23.564 0-42.667 19.104-42.667 42.669s19.103 42.666 42.667 42.666h384zM853.331 618.666c23.565 0 42.669-19.103 42.669-42.667s-19.104-42.667-42.669-42.667h-682.664c-23.564 0-42.667 19.103-42.667 42.667s19.103 42.667 42.667 42.667h682.664z" />
<glyph unicode="&#xe909;" glyph-name="choice" d="M512 832c212.077 0 384-171.923 384-384s-171.923-384-384-384c-212.077 0-384 171.923-384 384s171.923 384 384 384zM512 746.667c-164.949 0-298.667-133.718-298.667-298.667 0-164.947 133.718-298.669 298.667-298.669 164.947 0 298.669 133.722 298.669 298.669 0 164.949-133.722 298.667-298.669 298.667zM512 661.333c117.821 0 213.331-95.512 213.331-213.333s-95.51-213.331-213.331-213.331c-117.821 0-213.333 95.51-213.333 213.331s95.512 213.333 213.333 213.333z" />
<glyph unicode="&#xe90a;" glyph-name="phone" d="M725.331 746.666c0 11.316-4.499 22.165-12.499 30.166s-18.848 12.5-30.163 12.5h-85.336c0-23.564-19.103-42.666-42.667-42.666h-85.333c-23.564 0-42.667 19.102-42.667 42.666h-85.333c-11.316 0-22.165-4.499-30.167-12.5s-12.5-18.851-12.5-30.166v-597.335l0.209-4.205c0.968-9.773 5.288-18.957 12.291-25.958 8.002-8.006 18.851-12.499 30.167-12.499h341.336c11.315 0 22.163 4.493 30.163 12.499 8 8 12.499 18.848 12.499 30.163v597.335zM469.333 234.246v0.422c0 23.558 19.102 42.662 42.666 42.662s42.667-19.104 42.667-42.662v-0.422c0-23.558-19.103-42.662-42.667-42.662s-42.666 19.104-42.666 42.662zM810.669 149.331c0-33.946-13.498-66.496-37.504-90.496-24-24.006-56.55-37.504-90.496-37.504h-341.336c-33.948 0-66.495 13.498-90.5 37.504-24.005 24-37.5 56.55-37.5 90.496v597.335c0 33.948 13.495 66.495 37.5 90.5s56.552 37.5 90.5 37.5h341.336c33.946 0 66.496-13.496 90.496-37.5 24.006-24.004 37.504-56.552 37.504-90.5v-597.335z" />
<glyph unicode="&#xe90b;" glyph-name="descending" d="M665.606 503.137h-543.507c-28.276 0-51.2-22.923-51.2-51.2s22.924-51.2 51.2-51.2h543.507c28.282 0 51.2 22.923 51.2 51.2s-22.918 51.2-51.2 51.2zM901.92 763.076h-779.82c-28.276 0-51.2-22.924-51.2-51.2v-0.001c0-28.276 22.924-51.199 51.2-51.199h779.82c28.275 0 51.2 22.923 51.2 51.2s-22.925 51.2-51.2 51.2zM358.408 243.2h-236.308c-28.276 0-51.2-22.925-51.2-51.2s22.924-51.2 51.2-51.2h236.308c28.276 0 51.2 22.925 51.2 51.2s-22.924 51.2-51.2 51.2z" />
<glyph unicode="&#xe90c;" glyph-name="text" d="M102.401 678.4c0 14.138 11.461 25.6 25.6 25.6h382.494c14.138 0 25.6-11.462 25.6-25.6s-11.462-25.6-25.6-25.6h-167.153v-334.304c0-13.306-10.787-24.096-24.094-24.096s-24.094 10.79-24.094 24.096v334.304h-167.153c-14.139 0-25.6 11.462-25.6 25.6zM632.471 627.203c-14.138 0-25.6-11.462-25.6-25.6s11.462-25.6 25.6-25.6h144.566c14.138 0 25.6 11.461 25.6 25.6s-11.462 25.6-25.6 25.6h-144.566zM487.907 524.803h433.693c14.138 0 25.6-11.462 25.6-25.6s-11.462-25.6-25.6-25.6h-71.898c-6.637-75.266-42.266-144.367-98.17-193.322l133.152-65.293c12.691-6.227 17.939-21.562 11.712-34.259-6.227-12.691-21.562-17.939-34.259-11.712l-140.608 68.954c-5.715 2.803-11.309 5.779-16.774 8.915-5.472-3.136-11.066-6.112-16.781-8.915l-140.609-68.954c-12.694-6.227-28.031-0.979-34.257 11.712-6.225 12.698-0.98 28.032 11.714 34.259l133.155 65.293c-55.91 48.954-91.54 118.056-98.17 193.322h-71.901c-14.138 0-25.6 11.461-25.6 25.6s11.462 25.6 25.6 25.6zM611.249 473.603c7.064-65.917 41.141-125.731 93.506-165.437 52.358 39.706 86.438 99.52 93.504 165.437h-187.010z" />
<glyph unicode="&#xe90d;" glyph-name="edit" d="M485.512 704.934l-54.416-54.223c-2.116-1.4-4.124-3.032-5.987-4.896-1.83-1.83-3.437-3.798-4.82-5.871l-293.795-292.747c-7.231-7.206-11.295-16.993-11.295-27.204v-128c0-21.203 17.192-38.4 38.4-38.4h128c10.208 0 19.996 4.064 27.201 11.296l292.77 293.819c2.063 1.379 4.022 2.98 5.844 4.801 1.856 1.856 3.482 3.854 4.878 5.96l54.241 54.436c23.994 24.003 37.472 56.552 37.472 90.49 0 33.949-13.491 66.508-37.491 90.513-24.006 24.006-56.566 37.492-90.515 37.492-33.937 0-66.484-13.477-90.488-37.466zM612.159 578.14l-32.476-32.592-72.53 72.531 32.64 32.524c9.603 9.603 22.627 14.998 36.207 14.998s26.604-5.395 36.207-14.998c9.603-9.603 14.998-22.627 14.998-36.207s-5.395-26.604-14.998-36.207l-0.048-0.049zM192 304.051l260.749 259.819 72.724-72.724-259.82-260.752h-73.654v73.658zM563.2 140.8c28.277 0 51.2 22.925 51.2 51.2s-22.923 51.2-51.2 51.2c-28.277 0-51.2-22.925-51.2-51.2s22.923-51.2 51.2-51.2zM768 192c0-28.275-22.925-51.2-51.2-51.2s-51.2 22.925-51.2 51.2c0 28.275 22.925 51.2 51.2 51.2s51.2-22.925 51.2-51.2zM870.4 140.8c28.275 0 51.2 22.925 51.2 51.2s-22.925 51.2-51.2 51.2c-28.275 0-51.2-22.925-51.2-51.2s22.925-51.2 51.2-51.2z" />
<glyph unicode="&#xe90e;" glyph-name="btn_list" d="M227.556 675.555c0 31.419 25.47 56.889 56.889 56.889s56.889-25.47 56.889-56.889c0-31.419-25.47-56.889-56.889-56.889s-56.889 25.47-56.889 56.889zM455.111 675.555c0 31.419 25.47 56.889 56.889 56.889s56.889-25.47 56.889-56.889c0-31.419-25.47-56.889-56.889-56.889s-56.889 25.47-56.889 56.889zM682.669 675.555c0 31.419 25.466 56.889 56.89 56.889 31.418 0 56.883-25.47 56.883-56.889s-25.466-56.889-56.883-56.889c-31.424 0-56.89 25.47-56.89 56.889zM227.556 448c0 31.419 25.47 56.889 56.889 56.889s56.889-25.47 56.889-56.889c0-31.419-25.47-56.889-56.889-56.889s-56.889 25.47-56.889 56.889zM455.111 448c0 31.419 25.47 56.889 56.889 56.889s56.889-25.47 56.889-56.889c0-31.419-25.47-56.889-56.889-56.889s-56.889 25.47-56.889 56.889zM682.669 448c0 31.419 25.466 56.889 56.89 56.889 31.418 0 56.883-25.47 56.883-56.889s-25.466-56.889-56.883-56.889c-31.424 0-56.89 25.47-56.89 56.889zM227.556 220.442c0 31.424 25.47 56.89 56.889 56.89s56.889-25.466 56.889-56.89c0-31.418-25.47-56.883-56.889-56.883s-56.889 25.466-56.889 56.883zM455.111 220.442c0 31.424 25.47 56.89 56.889 56.89s56.889-25.466 56.889-56.89c0-31.418-25.47-56.883-56.889-56.883s-56.889 25.466-56.889 56.883zM682.669 220.442c0 31.424 25.466 56.89 56.89 56.89 31.418 0 56.883-25.466 56.883-56.89 0-31.418-25.466-56.883-56.883-56.883-31.424 0-56.89 25.466-56.89 56.883z" />
<glyph unicode="&#xe90f;" glyph-name="pencil" d="M652.8 742.4c33.952 0 66.509-13.486 90.515-37.492s37.491-56.564 37.491-90.513c0-33.939-13.478-66.487-37.472-90.49l-54.24-54.436c-1.395-2.106-3.021-4.104-4.877-5.959-1.824-1.822-3.782-3.423-5.85-4.801l-292.767-293.819c-7.205-7.232-16.993-11.296-27.201-11.296h-128c-21.208 0-38.4 17.197-38.4 38.4v128c0 10.21 4.065 19.998 11.295 27.203l293.795 292.747c1.383 2.073 2.99 4.042 4.82 5.871 1.864 1.864 3.871 3.496 5.987 4.896l54.417 54.223c24.003 23.99 56.55 37.466 90.487 37.466zM656.48 545.548l32.525 32.641c9.606 9.603 15.002 22.627 15.002 36.207s-5.395 26.604-15.002 36.207c-9.6 9.603-22.624 14.998-36.205 14.998s-26.604-5.395-36.207-14.998l-0.048-0.048-32.592-32.476 72.527-72.531zM529.549 563.869l-260.749-259.818v-73.658h73.654l259.82 260.751-72.724 72.724z" />
<glyph unicode="&#xe910;" glyph-name="open" d="M981.331 448c0 259.206-210.125 469.333-469.331 469.333s-469.333-210.128-469.333-469.333c0-259.206 210.128-469.331 469.333-469.331s469.331 210.125 469.331 469.331zM1024 448c0-282.771-229.229-512-512-512s-512 229.229-512 512c0 282.77 229.23 512 512 512s512-229.23 512-512zM286.17 606.17c-16.662 16.662-43.677 16.662-60.34 0s-16.662-43.677 0-60.34l256-256c16.662-16.659 43.677-16.659 60.34 0l256 256c16.659 16.662 16.659 43.677 0 60.34s-43.68 16.662-60.339 0l-225.831-225.83-225.83 225.83z" />
<glyph unicode="&#xe911;" glyph-name="btn_list_copy" d="M358.4 908.8h460.8c84.832 0 153.6-68.769 153.6-153.6v-460.8c0-84.832-68.768-153.6-153.6-153.6 0-84.832-68.768-153.6-153.6-153.6h-460.8c-84.831 0-153.6 68.768-153.6 153.6v460.8c0 84.831 68.769 153.6 153.6 153.6 0 84.831 68.769 153.6 153.6 153.6zM819.2 243.2c28.275 0 51.2 22.925 51.2 51.2v460.8c0 28.276-22.925 51.2-51.2 51.2h-460.8c-28.277 0-51.2-22.924-51.2-51.2h358.4c84.832 0 153.6-68.769 153.6-153.6v-358.4zM256 652.8h-51.2c-28.277 0-51.2-22.924-51.2-51.2v-460.8c0-28.275 22.923-51.2 51.2-51.2h460.8c28.275 0 51.2 22.925 51.2 51.2v460.8c0 28.277-22.925 51.2-51.2 51.2h-409.6z" />
<glyph unicode="&#xe912;" glyph-name="btn_list_copylink" d="M685.152 817.028c54.093 54.095 141.798 54.095 195.898 0 54.093-54.095 54.093-141.801 0-195.896l-286.163-286.161c-54.095-54.095-141.802-54.095-195.897 0-10.39 10.39-18.732 21.943-25.088 34.199-13.018 25.103-43.92 34.899-69.022 21.881s-34.899-43.92-21.881-69.022c11.132-21.466 25.682-41.562 43.583-59.463 94.085-94.086 246.627-94.086 340.714 0l286.157 286.158c94.086 94.085 94.086 246.627 0 340.712s-246.624 94.085-340.71 0l-71.54-71.54c-19.995-19.995-19.995-52.413 0-72.408s52.413-19.994 72.408 0l71.542 71.54zM429.062 561.016c54.111 54.111 141.843 54.111 195.955 0 10.389-10.389 18.728-21.939 25.089-34.193 13.018-25.1 43.923-34.893 69.024-21.871s34.893 43.924 21.869 69.025c-11.13 21.46-25.677 41.55-43.571 59.447-94.104 94.101-246.672 94.101-340.773 0l-286.078-286.078c-94.101-94.098-94.101-246.668 0-340.773 94.101-94.099 246.669-94.099 340.77 0l71.52 71.52c19.995 20 19.995 52.416 0 72.41s-52.413 19.994-72.408 0l-71.519-71.52c-54.111-54.112-141.843-54.112-195.955 0s-54.111 141.843 0 195.955l286.078 286.079z" />
<glyph unicode="&#xe913;" glyph-name="btn_list_down" d="M155.796 612.204c19.995 19.995 52.413 19.995 72.408 0l283.796-283.796 283.795 283.796c19.994 19.995 52.416 19.995 72.41 0s19.994-52.413 0-72.408l-320.001-320.001c-19.995-19.994-52.413-19.994-72.408 0l-320 320.001c-19.995 19.995-19.995 52.413 0 72.408z" />
<glyph unicode="&#xe914;" glyph-name="btn_list_trash" d="M358.4 908.8c0 28.277 22.923 51.2 51.2 51.2h204.8c28.275 0 51.2-22.923 51.2-51.2s-22.925-51.2-51.2-51.2h-204.8c-28.277 0-51.2 22.923-51.2 51.2zM0 755.2c0 28.277 22.923 51.2 51.2 51.2h921.6c28.275 0 51.2-22.923 51.2-51.2s-22.925-51.2-51.2-51.2h-102.4v-665.6c0-56.557-45.843-102.4-102.4-102.4h-512c-56.554 0-102.4 45.843-102.4 102.4v665.6h-102.4c-28.277 0-51.2 22.923-51.2 51.2zM256 704v-665.6h512v665.6h-512z" />
<glyph unicode="&#xe915;" glyph-name="nav_link" d="M382.468 679.128c40.94 102.135 140.845 174.205 257.532 174.205 153.165 0 277.331-124.166 277.331-277.333s-124.166-277.331-277.331-277.331c-146.497 0-266.48 113.599-276.636 257.5-0.829 11.753-11.029 20.608-22.782 19.779s-20.608-11.029-19.779-22.782c11.722-166.084 150.142-297.165 319.197-297.165 176.73 0 320 143.269 320 320s-143.27 320-320 320c-134.711 0-249.93-83.233-297.135-200.998-4.383-10.936 0.929-23.356 11.865-27.739s23.355 0.928 27.739 11.864zM106.667 320c0 153.167 124.166 277.333 277.333 277.333 146.497 0 266.483-113.601 276.634-257.501 0.832-11.753 11.034-20.606 22.784-19.779 11.757 0.829 20.608 11.029 19.782 22.782-11.725 166.084-150.145 297.165-319.2 297.165-176.731 0-320-143.269-320-320s143.269-320 320-320c136.5 0 252.987 85.459 298.982 205.715 4.211 11.002-1.299 23.334-12.307 27.546-11.002 4.205-23.334-1.299-27.546-12.307-39.886-104.288-140.893-178.285-259.13-178.285-153.167 0-277.333 124.166-277.333 277.331z" />
<glyph unicode="&#xe916;" glyph-name="video" d="M383.999 226.298v443.403l384.001-221.703-384.001-221.7zM793.6 403.657c34.131 19.707 34.131 68.974 0 88.681l-384.001 221.703c-34.134 19.707-76.8-4.927-76.8-44.34v-443.403c0-39.418 42.666-64.051 76.8-44.346l384.001 221.705z" />
<glyph unicode="&#xe917;" glyph-name="nav_style" d="M790.618 374.193c22.867 39.837 82.618 169.784 129.773 294.744 23.52 62.341 43.155 121.492 53.466 166.274 1.421 6.166 2.624 11.887 3.622 17.161-3.955-3.436-8.179-7.256-12.672-11.473-33.382-31.358-74.49-78.025-116.403-129.685-84.019-103.546-166.029-220.558-188.896-260.394-20.805-36.249-21.636-60.065-17.536-74.914 4.173-15.103 15.878-29.76 37.907-42.55 22.048-12.804 40.41-15.597 55.277-11.734 14.611 3.795 34.643 16.295 55.462 52.57zM827.622 352.952c-49.056-85.457-112.531-89.38-169.171-56.491-56.641 32.891-84.997 90.147-35.945 175.601s334.575 476.204 391.215 443.312c56.64-32.891-137.050-476.968-186.099-562.422zM64 444.429c0 225 190.448 408.904 427.276 408.904 81.906 0 158.33-22.036 223.245-60.187 10.163-5.969 23.232-2.574 29.203 7.584s2.573 23.231-7.584 29.201c-71.36 41.937-155.232 66.068-244.865 66.068-258.693 0-469.943-201.343-469.943-451.571 0-202.093 137.95-372.436 327.166-430.349h-0.001l0.386-0.115c71.939-20.544 145.437-18.4 202.113 6.298 57.579 25.088 98.148 74.035 98.148 143.578 0 44.787-23.386 84.826-59.683 105.133-37.152 20.787-85.055 19.443-130.149-12.992-26.16-18.816-40.759-44.454-52.451-64.986-2.879-5.056-5.582-9.798-8.237-14.061-7.207-11.558-14.632-21.229-24.638-29.165-9.882-7.84-23.29-14.765-43.37-19.219-11.503-2.554-18.759-13.946-16.207-25.446 2.551-11.507 13.944-18.758 25.446-16.211 25.635 5.69 45.13 15.142 60.643 27.45 15.389 12.205 25.852 26.426 34.33 40.019 4.298 6.886 8.019 13.35 11.519 19.43 11.1 19.27 19.964 34.669 37.879 47.552 32.925 23.686 63.041 22.342 84.404 10.394 22.218-12.429 37.844-37.862 37.844-67.898 0-49.709-27.7-84.934-72.522-104.467-45.679-19.898-108.634-22.822-173.162-4.435-172.678 52.941-296.793 207.738-296.793 389.492z" />
<glyph unicode="&#xe918;" glyph-name="btn_list_copylink1" d="M685.152 817.028c54.093 54.095 141.798 54.095 195.898 0 54.093-54.095 54.093-141.801 0-195.896l-286.163-286.161c-54.095-54.095-141.802-54.095-195.897 0-10.39 10.39-18.732 21.943-25.088 34.199-13.018 25.103-43.92 34.899-69.022 21.881s-34.899-43.92-21.881-69.022c11.132-21.466 25.682-41.562 43.583-59.463 94.085-94.086 246.627-94.086 340.714 0l286.157 286.158c94.086 94.085 94.086 246.627 0 340.712s-246.624 94.085-340.71 0l-71.54-71.54c-19.995-19.995-19.995-52.413 0-72.408s52.413-19.994 72.408 0l71.542 71.54zM429.062 561.016c54.111 54.111 141.843 54.111 195.955 0 10.389-10.389 18.728-21.939 25.089-34.193 13.018-25.1 43.923-34.893 69.024-21.871s34.893 43.924 21.869 69.025c-11.13 21.46-25.677 41.55-43.571 59.447-94.104 94.101-246.672 94.101-340.773 0l-286.078-286.078c-94.101-94.098-94.101-246.668 0-340.773 94.101-94.099 246.669-94.099 340.77 0l71.52 71.52c19.995 20 19.995 52.416 0 72.41s-52.413 19.994-72.408 0l-71.519-71.52c-54.111-54.112-141.843-54.112-195.955 0s-54.111 141.843 0 195.955l286.078 286.079z" />
<glyph unicode="&#xe919;" glyph-name="calendar" d="M672 825.592v-46.941h53.338c31.117 0 60.96-12.362 82.963-34.366s34.368-51.848 34.368-82.968v-170.666c0-17.673-14.33-32-32-32h-650.667v-309.332c0-14.144 5.619-27.712 15.621-37.715s23.567-15.622 37.712-15.622h289.921c17.673 0 32-14.323 32-32 0-17.67-14.327-32-32-32h-289.921c-31.119 0-60.963 12.365-82.967 34.368s-34.366 51.846-34.366 82.97v511.998c0 31.119 12.362 60.963 34.366 82.968s51.848 34.366 82.967 34.366h53.35v46.941c0 17.673 14.327 32 32 32s32-14.327 32-32v-46.941h277.316v46.941c0 17.673 14.327 32 31.998 32 17.677 0 32-14.327 32-32zM778.669 522.65v138.666c0 14.145-5.619 27.711-15.622 37.713s-23.565 15.621-37.709 15.621h-53.338v-59.725c0-17.673-14.323-32-32-32-17.671 0-31.998 14.327-31.998 32v59.725h-277.316v-59.725c0-17.673-14.327-32-32-32s-32 14.327-32 32v59.725h-53.35c-14.145 0-27.71-5.619-37.712-15.621s-15.621-23.567-15.621-37.713v-138.666h618.667zM622.579 337.424c38.010 38.007 89.556 59.359 143.309 59.359 53.747 0 105.299-21.352 143.302-59.359 38.010-38.006 59.36-89.558 59.36-143.306 0-53.754-21.35-105.299-59.36-143.309-38.003-38.010-89.555-59.36-143.302-59.36-53.754 0-105.299 21.35-143.309 59.36-38.008 38.010-59.36 89.555-59.36 143.309 0 53.747 21.352 105.299 59.36 143.306zM765.888 332.783c-36.781 0-72.051-14.607-98.054-40.617-26.003-26.003-40.615-61.274-40.615-98.048 0-36.781 14.612-72.051 40.615-98.054s61.274-40.614 98.054-40.614c36.774 0 72.045 14.611 98.048 40.614 26.010 26.003 40.614 61.274 40.614 98.054 0 36.774-14.605 72.045-40.614 98.048-26.003 26.010-61.274 40.617-98.048 40.617zM765.869 290.291c17.67 0 32-14.323 32-32v-50.918l33.293-33.293c12.499-12.493 12.499-32.755 0-45.254-12.493-12.493-32.755-12.493-45.254 0l-42.669 42.669c-5.997 6.003-9.37 14.138-9.37 22.624v64.173c0 17.677 14.33 32 32 32zM225.299 396.783c-11.311 0-20.48-9.169-20.48-20.48v-35.84c0-11.311 9.169-20.483 20.48-20.483h35.84c11.311 0 20.48 9.172 20.48 20.483v35.84c0 11.311-9.169 20.48-20.48 20.48h-35.84zM332.819 376.303c0 11.311 9.169 20.48 20.48 20.48h35.84c11.311 0 20.48-9.169 20.48-20.48v-35.84c0-11.311-9.169-20.483-20.48-20.483h-35.84c-11.311 0-20.48 9.172-20.48 20.483v35.84zM481.299 396.783c-11.311 0-20.48-9.169-20.48-20.48v-35.84c0-11.311 9.169-20.483 20.48-20.483h35.84c11.311 0 20.48 9.172 20.48 20.483v35.84c0 11.311-9.169 20.48-20.48 20.48h-35.84zM204.819 258.547c0 11.309 9.169 20.48 20.48 20.48h35.84c11.311 0 20.48-9.171 20.48-20.48v-35.84c0-11.315-9.169-20.48-20.48-20.48h-35.84c-11.311 0-20.48 9.165-20.48 20.48v35.84zM353.299 279.027c-11.311 0-20.48-9.171-20.48-20.48v-35.84c0-11.315 9.169-20.48 20.48-20.48h35.84c11.311 0 20.48 9.165 20.48 20.48v35.84c0 11.309-9.169 20.48-20.48 20.48h-35.84z" />
<glyph unicode="&#xe91a;" glyph-name="lock" d="M544 832c106.042 0 192-85.962 192-192v-100.033c55.206-14.209 96-64.324 96-123.967v-256c0-70.694-57.306-128-128-128h-320c-70.692 0-128 57.306-128 128v256c0 59.643 40.793 109.758 96 123.967v100.033c0 106.038 85.962 192 192 192zM672 544v96c0 70.692-57.308 128-128 128s-128-57.308-128-128v-96h256z" />
<glyph unicode="&#xe91b;" glyph-name="price" d="M535.972 272.077c11.969 1.35 22.913 3.827 32.83 7.443 15.981 5.92 28.488 14.080 37.521 24.48 9.033 10.56 13.636 22.88 13.81 36.96-0.173 12.8-4.256 23.36-12.246 31.68-7.99 8.48-19.194 15.52-33.612 21.12-11.251 4.549-24.018 8.7-38.302 12.451v-134.134zM493.24 497.469v126.324c-10.768-1.341-20.495-3.699-29.183-7.073-14.417-5.6-25.448-13.2-33.091-22.8s-11.551-20.56-11.725-32.88c0-10.24 2.518-19.12 7.556-26.64 5.212-7.52 12.246-13.92 21.106-19.2 8.859-5.12 18.673-9.44 29.443-12.96 5.277-1.725 10.575-3.315 15.894-4.771zM512-12.8c-254.493 0-460.8 206.304-460.8 460.8 0 254.493 206.307 460.8 460.8 460.8 254.496 0 460.8-206.307 460.8-460.8 0-254.496-206.304-460.8-460.8-460.8zM493.24 195.334v-54.534h42.732v54.547c33.517 1.741 62.7 7.635 87.548 17.69 30.227 12.32 53.325 29.363 69.306 51.123 15.987 21.92 23.974 47.277 23.974 76.080 0 21.28-4.346 39.84-13.030 55.68s-20.493 29.36-35.437 40.56c-14.765 11.2-31.524 20.48-50.285 27.84-18.587 7.36-37.955 13.2-58.105 17.52l-23.971 5.52v136.712c19.662-2.158 36.251-7.649 49.766-16.472 18.066-11.68 28.314-28 30.746-48.96h93.020c-0.518 27.68-8.947 52.16-25.274 73.44-16.326 21.44-38.822 38.16-67.485 50.16-23.683 10.109-50.607 16.016-80.773 17.721v55.239h-42.732v-55.595c-27.832-2.079-53.28-7.868-76.344-17.365-29.53-12-52.894-28.88-70.091-50.64-17.023-21.76-25.535-47.12-25.535-76.080 0-35.2 12.68-63.44 38.042-84.72 25.535-21.12 60.276-36.88 104.224-47.28l29.704-7.046v-144.577c-12.278 1.267-23.742 3.731-34.394 7.379-16.155 5.6-29.27 14.080-39.345 25.44s-15.807 25.603-17.197 42.723h-95.105c1.39-32.643 10.596-60.323 27.619-83.043 17.197-22.72 40.995-40 71.394-51.84 25.27-9.786 54.279-15.526 87.027-17.222z" />
<glyph unicode="&#xe91c;" glyph-name="contact" d="M341.334 757.333h426.666c14.144 0 27.712-5.619 37.715-15.621 9.997-10.002 15.616-23.567 15.616-37.713v-511.999c0-14.144-5.619-27.712-15.616-37.715-10.003-9.997-23.571-15.616-37.715-15.616h-426.666c-14.145 0-27.711 5.619-37.713 15.616-10.002 10.003-15.62 23.571-15.62 37.715v53.331h10.666c17.673 0 32 14.33 32 32 0 17.677-14.327 32-32 32h-10.666v106.668h10.666c17.673 0 32 14.327 32 32s-14.327 32-32 32h-10.666v106.667h10.666c17.673 0 32 14.327 32 32s-14.327 32-32 32h-10.666v53.333c0 14.145 5.619 27.711 15.62 37.713s23.567 15.621 37.713 15.621zM224.001 245.331v-53.331c0-31.117 12.362-60.966 34.366-82.97s51.848-34.362 82.967-34.362h426.666c31.117 0 60.966 12.358 82.97 34.362s34.362 51.853 34.362 82.97v511.999c0 31.119-12.358 60.963-34.362 82.968s-51.853 34.366-82.97 34.366h-426.666c-31.119 0-60.963-12.362-82.967-34.366s-34.366-51.848-34.366-82.968v-53.333h-53.334c-17.673 0-32-14.327-32-32s14.327-32 32-32h53.334v-106.667h-53.334c-17.673 0-32-14.326-32-32s14.327-32 32-32h53.334v-106.668h-53.334c-17.673 0-32-14.323-32-32 0-17.67 14.327-32 32-32h53.334zM471.7 573.633c22.004 22.004 51.848 34.366 82.967 34.366s60.963-12.362 82.967-34.366c22.008-22.004 34.366-51.848 34.366-82.967s-12.358-60.963-34.366-82.967c-22.004-22.004-51.848-34.366-82.967-34.366s-60.963 12.362-82.967 34.366c-22.004 22.004-34.366 51.848-34.366 82.967s12.362 60.963 34.366 82.967zM554.667 543.999c-14.145 0-27.71-5.619-37.712-15.62s-15.621-23.568-15.621-37.713c0-14.145 5.619-27.71 15.621-37.712s23.567-15.621 37.712-15.621c14.145 0 27.711 5.619 37.713 15.621s15.621 23.567 15.621 37.712c0 14.145-5.619 27.711-15.621 37.713s-23.567 15.62-37.713 15.62zM394.667 277.331c0 17.677 14.327 32 32 32h256.002c17.67 0 32-14.323 32-32 0-17.67-14.33-32-32-32h-256.002c-17.673 0-32 14.33-32 32z" />
<glyph unicode="&#xe91d;" glyph-name="map" d="M912.826 816.554c9.434-5.83 15.174-16.13 15.174-27.22v-554.664c0-12.122-6.848-23.206-17.69-28.627l-256-128c-9.011-4.499-19.612-4.499-28.621 0l-241.689 120.845-241.689-120.845c-9.92-4.96-21.7-4.429-31.135 1.402s-15.176 16.134-15.176 27.226v554.664c0 12.12 6.848 23.201 17.689 28.621l256 128c9.009 4.504 19.613 4.504 28.622 0l241.689-120.845 241.69 120.845c9.92 4.96 21.702 4.43 31.136-1.401zM608 641.556l-192 96v-483.111l192-96v483.111zM672 158.445l192 96v483.111l-192-96v-483.111zM352 254.445v483.111l-192-96v-483.111l192 96z" />
<glyph unicode="&#xe91e;" glyph-name="template" d="M894.959 789.177v-311.937h-311.936v311.937h311.936zM583.023 841.167c-28.715 0-51.994-23.276-51.994-51.99v-311.937c0-28.715 23.279-51.989 51.994-51.989h311.936c28.715 0 51.989 23.275 51.989 51.989v311.937c0 28.713-23.275 51.99-51.989 51.99h-311.936zM427.055 529.22v-415.919h-311.94v415.919h311.94zM115.115 581.208c-28.713 0-51.99-23.277-51.99-51.988v-415.919c0-28.715 23.277-51.989 51.99-51.989h311.94c28.71 0 51.989 23.275 51.989 51.989v415.919c0 28.711-23.279 51.988-51.989 51.988h-311.94zM427.055 789.177v-103.98h-311.94v103.98h311.94zM115.115 841.167c-28.713 0-51.99-23.276-51.99-51.99v-103.98c0-28.713 23.277-51.99 51.99-51.99h311.94c28.71 0 51.989 23.277 51.989 51.99v103.98c0 28.713-23.279 51.99-51.989 51.99h-311.94zM894.959 321.259v-207.957h-311.936v207.957h311.936zM583.023 373.248c-28.715 0-51.994-23.275-51.994-51.989v-207.957c0-28.715 23.279-51.989 51.994-51.989h311.936c28.715 0 51.989 23.275 51.989 51.989v207.957c0 28.715-23.275 51.989-51.989 51.989h-311.936z" />
<glyph unicode="&#xe91f;" glyph-name="time" d="M210.305 749.707c80.016 80.015 188.54 124.968 301.7 124.968 113.157 0 221.681-44.953 301.696-124.968s124.969-188.54 124.969-301.699c0-56.031-11.034-111.512-32.476-163.28-21.443-51.763-52.869-98.801-92.493-138.419-39.619-39.619-86.651-71.045-138.419-92.488-51.763-21.443-107.249-32.481-163.277-32.481-56.032 0-111.514 11.039-163.279 32.481s-98.801 52.869-138.421 92.488c-39.62 39.619-71.048 86.656-92.489 138.419-21.442 51.768-32.478 107.249-32.478 163.28 0 113.159 44.952 221.684 124.967 301.699zM512.005 789.342c-90.528 0-177.348-35.962-241.36-99.974s-99.975-150.832-99.975-241.359c0-44.824 8.829-89.209 25.982-130.625 17.154-41.411 42.296-79.037 73.992-110.735 31.695-31.693 69.324-56.837 110.736-73.989 41.413-17.157 85.798-25.984 130.623-25.984s89.211 8.827 130.621 25.984c41.411 17.152 79.043 42.296 110.735 73.989 31.698 31.698 56.837 69.325 73.994 110.735 17.152 41.416 25.979 85.801 25.979 130.625 0 90.527-35.958 177.347-99.973 241.359-64.010 64.012-150.83 99.974-241.357 99.974zM512.005 704c23.562 0 42.665-19.103 42.665-42.666v-195.66l115.502-115.501c16.666-16.666 16.666-43.679 0-60.344-16.66-16.66-43.674-16.66-60.339 0l-127.998 128c-8.002 8.003-12.497 18.857-12.497 30.172v213.334c0 23.564 19.102 42.666 42.668 42.666z" />
<glyph unicode="&#xe920;" glyph-name="dots" d="M128.017 448.017c0.004 22.625 9.001 44.301 25 60.3s37.674 24.996 60.3 25c22.632 0 44.347-8.997 60.35-25 15.994-15.998 24.996-37.678 25-60.3 0-22.632-8.997-44.347-25-60.35s-37.718-25-60.35-25c-22.622 0.004-44.301 9.006-60.3 25-14.003 14.003-22.66 32.365-24.6 51.9l-0.4 8.45zM426.683 448.017c0.004 22.625 9.001 44.301 25 60.3s37.674 24.996 60.3 25c22.632 0 44.347-8.997 60.349-25 15.994-15.998 24.996-37.678 25-60.3 0-22.632-8.997-44.347-25-60.35s-37.718-25-60.349-25c-22.622 0.004-44.302 9.006-60.3 25-16.003 16.003-25 37.718-25 60.35zM725.35 448.017c0.006 22.625 8.998 44.301 24.998 60.3s37.677 24.996 60.301 25c22.63 0 44.346-8.997 60.352-25 15.994-15.998 24.992-37.678 24.998-60.3 0-22.632-8.998-44.347-24.998-60.35-16.006-16.003-37.722-25-60.352-25-22.624 0.004-44.301 9.006-60.301 25-16 16.003-24.998 37.718-24.998 60.35z" />
<glyph unicode="&#xe921;" glyph-name="btn_list_up" d="M868.205 219.795c-19.994-19.994-52.416-19.994-72.41 0l-283.795 283.797-283.796-283.797c-19.995-19.994-52.413-19.994-72.408 0s-19.995 52.416 0 72.41l320 319.999c19.995 19.995 52.413 19.995 72.408 0l320.001-319.999c19.994-19.994 19.994-52.416 0-72.41z" />
<glyph unicode="&#xe922;" glyph-name="import" d="M684.384 874.704l179.776-207.976v-0.5c3.834-4.499 6.234-10.499 6.234-16.498v-524.943c0-45.491-35.475-81.99-78.624-81.99h-266.066c-13.423 0-23.97 11.002-23.97 24.998 0 14.003 10.547 24.998 23.97 24.998h266.066c16.781 0 30.682 14.496 30.682 31.994v495.946h-159.642c-13.421 0-23.967 10.998-23.967 24.997v187.478h-310.172c-16.779 0-30.682-14.499-30.682-31.996v-399.454c0-13.999-10.547-24.998-23.97-24.998s-23.97 10.999-23.97 24.998v399.454c0 45.494 35.475 81.99 78.621 81.99h337.98c6.707 0 12.941-3 17.734-8.499zM686.784 786.714v-115.987h102.592l-102.592 115.987zM454.278 161.274c0-3.002-0.479-6.502-1.917-9.504v-0.499c-1.438-2.995-5.274-8-5.274-8l-118.892-123.981c-4.314-5.005-11.026-7.501-16.779-7.501s-11.985 2.496-16.779 7.501c-9.588 9.997-9.588 25.491 0 35.494l77.663 80.992h-245.932c-13.423 0-23.97 10.995-23.97 24.992 0 14.003 10.547 24.998 23.97 24.998h245.932l-81.018 84.493c-9.588 9.997-9.588 25.498 0 35.494s24.449 9.997 34.037 0l121.768-126.982c2.397-2.003 3.836-5.005 5.274-8 1.438-3.002 1.917-6.502 1.917-9.498z" />
<glyph unicode="&#xe923;" glyph-name="align_center" d="M102.4 704c0 28.277 22.923 51.2 51.2 51.2h716.8c28.275 0 51.2-22.923 51.2-51.2v0c0-28.277-22.925-51.2-51.2-51.2h-716.8c-28.277 0-51.2 22.923-51.2 51.2v0zM204.8 448c0 28.277 22.923 51.2 51.2 51.2h512c28.275 0 51.2-22.923 51.2-51.2v0c0-28.277-22.925-51.2-51.2-51.2h-512c-28.277 0-51.2 22.923-51.2 51.2v0zM102.4 192c0 28.275 22.923 51.2 51.2 51.2h716.8c28.275 0 51.2-22.925 51.2-51.2v0c0-28.275-22.925-51.2-51.2-51.2h-716.8c-28.277 0-51.2 22.925-51.2 51.2v0z" />
<glyph unicode="&#xe924;" glyph-name="align_left" d="M0 704c0 28.277 22.923 51.2 51.2 51.2h716.8c28.275 0 51.2-22.923 51.2-51.2v0c0-28.277-22.925-51.2-51.2-51.2h-716.8c-28.277 0-51.2 22.923-51.2 51.2v0zM0 448c0 28.277 22.923 51.2 51.2 51.2h409.6c28.277 0 51.2-22.923 51.2-51.2v0c0-28.277-22.923-51.2-51.2-51.2h-409.6c-28.277 0-51.2 22.923-51.2 51.2v0zM0 192c0 28.275 22.923 51.2 51.2 51.2h614.4c28.275 0 51.2-22.925 51.2-51.2v0c0-28.275-22.925-51.2-51.2-51.2h-614.4c-28.277 0-51.2 22.925-51.2 51.2v0z" />
<glyph unicode="&#xe925;" glyph-name="align_right" d="M1024 704c0 28.277-22.925 51.2-51.2 51.2h-716.8c-28.277 0-51.2-22.923-51.2-51.2v0c0-28.277 22.923-51.2 51.2-51.2h716.8c28.275 0 51.2 22.923 51.2 51.2v0zM1024 448c0 28.277-22.925 51.2-51.2 51.2h-409.6c-28.277 0-51.2-22.923-51.2-51.2v0c0-28.277 22.923-51.2 51.2-51.2h409.6c28.275 0 51.2 22.923 51.2 51.2v0zM1024 192c0 28.275-22.925 51.2-51.2 51.2h-614.4c-28.277 0-51.2-22.925-51.2-51.2v0c0-28.275 22.923-51.2 51.2-51.2h614.4c28.275 0 51.2 22.925 51.2 51.2v0z" />
<glyph unicode="&#xe926;" glyph-name="collapse" d="M35.31 857.6c-19.501 0-35.31-16.268-35.31-36.334s15.809-36.334 35.31-36.334h111.817v-253.834c0-20.067 15.809-36.335 35.311-36.335s35.31 16.268 35.31 36.335v253.834h111.816c19.501 0 35.31 16.268 35.31 36.334s-15.809 36.334-35.31 36.334h-294.253zM429.61 810.116c0 20.067 15.809 36.334 35.31 36.334h494.344c19.501 0 35.309-16.267 35.309-36.334s-15.808-36.334-35.309-36.334h-494.344c-19.501 0-35.31 16.268-35.31 36.334zM0 363.912c0 18.163 15.809 32.888 35.31 32.888h953.381c19.501 0 35.309-14.724 35.309-32.888v-343.823c0-18.163-15.808-32.89-35.309-32.89h-953.381c-19.501 0-35.31 14.726-35.31 32.89v343.823zM70.621 331.025v-278.052h882.762v278.052h-882.762zM548.204 108.89c-19.995-19.994-52.413-19.994-72.408 0l-102.4 102.4c-19.995 19.994-19.995 52.41 0 72.41 19.995 19.994 41.809 9.389 61.804-10.605l76.8-76.8 76.8 76.8c19.995 19.994 41.809 30.598 61.805 10.605 19.994-20 19.994-52.416 0-72.41l-102.401-102.4zM429.61 632.166c0 20.067 15.809 36.334 35.31 36.334h494.344c19.501 0 35.309-16.267 35.309-36.334s-15.808-36.334-35.309-36.334h-494.344c-19.501 0-35.31 16.268-35.31 36.334z" />
<glyph unicode="&#xe927;" glyph-name="expend" d="M36.359 857.6c-20.078 0-36.355-16.276-36.355-36.355s16.277-36.355 36.355-36.355h115.123v-249.626c0-20.079 16.277-36.355 36.355-36.355s36.355 16.276 36.355 36.355v249.626h115.126c20.078 0 36.355 16.276 36.355 36.355s-16.276 36.355-36.355 36.355h-302.959zM442.319 810.797c0 20.078 16.277 36.355 36.355 36.355h508.968c20.083 0 36.358-16.277 36.358-36.355s-16.275-36.355-36.358-36.355h-508.968c-20.078 0-36.355 16.277-36.355 36.355zM442.319 623.635c0 20.078 16.277 36.355 36.355 36.355h508.968c20.083 0 36.358-16.276 36.358-36.355s-16.275-36.355-36.358-36.355h-508.968c-20.078 0-36.355 16.276-36.355 36.355zM6.056 398.989c0 20.078 16.277 36.355 36.355 36.355h945.23c20.077 0 36.358-16.276 36.358-36.355s-16.282-36.355-36.358-36.355h-945.23c-20.078 0-36.355 16.277-36.355 36.355zM6.060 211.827c0 20.077 16.277 36.358 36.355 36.358h945.233c20.077 0 36.352-16.282 36.352-36.358s-16.275-36.352-36.352-36.352h-945.233c-20.078 0-36.355 16.275-36.355 36.352zM6.056 24.614c0 20.077 16.277 36.352 36.355 36.352h945.23c20.077 0 36.358-16.275 36.358-36.352s-16.282-36.352-36.358-36.352h-945.23c-20.078 0-36.355 16.275-36.355 36.352z" />
<glyph unicode="&#xe928;" glyph-name="danger" d="M467.684 787.2c19.707 34.133 68.974 34.133 88.681 0l354.726-614.4c19.706-34.131-4.928-76.8-44.346-76.8h-709.446c-39.414 0-64.047 42.669-44.34 76.8l354.724 614.4zM544.024 608c0 17.673-14.327 32-32 32s-32-14.327-32-32v-192c0-17.673 14.326-32 32-32s32 14.327 32 32v192zM544.024 288c0 17.67-14.327 32-32 32s-32-14.33-32-32v-64c0-17.67 14.326-32 32-32s32 14.33 32 32v64z" />
<glyph unicode="&#xe929;" glyph-name="podcast" d="M614.4 601.6c0 56.554-45.846 102.4-102.4 102.4s-102.4-45.846-102.4-102.4v-153.6c0-56.554 45.846-102.4 102.4-102.4s102.4 45.846 102.4 102.4v153.6zM358.4 601.6c0 84.831 68.769 153.6 153.6 153.6s153.6-68.769 153.6-153.6v-153.6c0-84.831-68.769-153.6-153.6-153.6s-153.6 68.769-153.6 153.6v153.6zM435.2 230.707c-89.487 31.629-153.6 116.975-153.6 217.293v51.2c0 14.138 11.462 25.6 25.6 25.6s25.6-11.462 25.6-25.6v-51.2c0-98.97 80.23-179.2 179.2-179.2s179.2 80.23 179.2 179.2v51.2c0 14.138 11.462 25.6 25.6 25.6s25.6-11.462 25.6-25.6v-51.2c0-100.317-64.115-185.658-153.6-217.293v-115.507h76.8c14.138 0 25.6-11.462 25.6-25.6s-11.462-25.6-25.6-25.6h-307.2c-14.138 0-25.6 11.462-25.6 25.6s11.462 25.6 25.6 25.6h76.8v115.507zM512 217.6h-25.6v-102.4h51.2v102.4h-25.6z" />
<glyph unicode="&#xe92a;" glyph-name="text_area" d="M563.2 448c0 14.138 11.462 25.6 25.6 25.6h307.2c14.138 0 25.6-11.462 25.6-25.6v0c0-14.138-11.462-25.6-25.6-25.6h-307.2c-14.138 0-25.6 11.462-25.6 25.6v0zM563.2 345.6c0 14.138 11.462 25.6 25.6 25.6h307.2c14.138 0 25.6-11.462 25.6-25.6v0c0-14.138-11.462-25.6-25.6-25.6h-307.2c-14.138 0-25.6 11.462-25.6 25.6v0zM563.2 243.2c0 14.138 11.462 25.6 25.6 25.6h307.2c14.138 0 25.6-11.462 25.6-25.6v0c0-14.138-11.462-25.6-25.6-25.6h-307.2c-14.138 0-25.6 11.462-25.6 25.6v0zM134.4 678.4c-17.673 0-32-14.327-32-32s14.327-32 32-32h165.485v-363.885c0-18.176 14.737-32.915 32.915-32.915s32.915 14.739 32.915 32.915v363.885h165.485c17.673 0 32 14.327 32 32s-14.327 32-32 32h-396.8z" />
<glyph unicode="&#xe92b;" glyph-name="divider" d="M76.8 192c0 14.138 11.461 25.6 25.6 25.6h819.2c14.138 0 25.6-11.462 25.6-25.6s-11.462-25.6-25.6-25.6h-819.2c-14.139 0-25.6 11.462-25.6 25.6zM563.2 448c0-28.277-22.924-51.2-51.2-51.2s-51.2 22.923-51.2 51.2c0 28.277 22.923 51.2 51.2 51.2s51.2-22.923 51.2-51.2zM358.4 448c0-28.277-22.923-51.2-51.2-51.2s-51.2 22.923-51.2 51.2c0 28.277 22.923 51.2 51.2 51.2s51.2-22.923 51.2-51.2zM768 448c0-28.277-22.925-51.2-51.2-51.2s-51.2 22.923-51.2 51.2c0 28.277 22.925 51.2 51.2 51.2s51.2-22.923 51.2-51.2zM76.8 704c0 14.138 11.461 25.6 25.6 25.6h819.2c14.138 0 25.6-11.462 25.6-25.6s-11.462-25.6-25.6-25.6h-819.2c-14.139 0-25.6 11.462-25.6 25.6z" />
<glyph unicode="&#xe92c;" glyph-name="picture" d="M153.6 652.8v-270.996l212.298 212.298c4.801 4.801 11.312 7.498 18.102 7.498s13.301-2.697 18.102-7.498l161.098-161.098 84.301 84.298c9.997 9.997 26.202 9.997 36.198 0l186.701-186.698v322.196h-716.8zM153.6 309.395v-66.195h526.995l-296.595 296.596-230.4-230.401zM753.005 243.2h117.395v14.995l-204.8 204.801-66.196-66.196 153.601-153.6zM102.4 652.8c0 28.277 22.923 51.2 51.2 51.2h716.8c28.275 0 51.2-22.923 51.2-51.2v-409.6c0-28.275-22.925-51.2-51.2-51.2h-716.8c-28.277 0-51.2 22.925-51.2 51.2v409.6z" />
<glyph unicode="&#xe92d;" glyph-name="head_account" d="M869.952 465.599c-2.022 41.053-11.091 81.496-26.854 119.55-18.010 43.482-44.365 83.021-77.645 116.3s-72.819 59.639-116.301 77.65c-38.056 15.763-78.499 24.831-119.552 26.85l-17.6 0.45c-47.066 0-93.667-9.288-137.15-27.3-43.482-18.011-83.020-44.371-116.3-77.65s-59.638-72.818-77.65-116.3c-18.012-43.483-27.3-90.084-27.3-137.15l0.45-17.6c2.019-41.053 11.087-81.495 26.85-119.551 17.14-41.376 41.917-79.11 72.95-111.347 13.553 25.216 32.42 47.373 55.651 64.646 33.863 25.178 74.953 38.81 117.149 38.803h170.7c42.243 0.006 83.367-13.626 117.249-38.848 23.181-17.261 41.971-39.43 55.501-64.602 31.046 32.243 55.859 69.958 72.998 111.347 18.016 43.485 27.302 90.086 27.302 137.151l-0.448 17.6zM415 251.251c-27.050-2.176-53.047-11.866-74.95-28.154-20.548-15.277-36.492-35.712-46.55-59.046 24.899-19.162 52.2-35.078 81.35-47.149 43.483-18.016 90.084-27.302 137.15-27.302l17.6 0.448c41.053 2.022 81.496 11.091 119.552 26.854 29.146 12.070 56.448 27.987 81.35 47.149-10.042 23.29-25.958 43.68-46.451 58.95-21.92 16.32-47.962 26.074-75.052 28.25l-11.65 0.499h-170.7l-11.65-0.499zM614.4 533.35c-0.004 27.152-10.8 53.2-30 72.4-19.203 19.198-45.246 30-72.4 30s-53.197-10.802-72.4-30c-19.2-19.2-29.996-45.248-30-72.4 0-27.155 10.801-53.197 30-72.4 19.204-19.204 45.242-30 72.4-30s53.196 10.796 72.4 30c19.199 19.203 30 45.245 30 72.4zM921.101 427.85c-2.31-46.906-12.691-93.12-30.701-136.598-20.582-49.69-50.72-94.867-88.749-132.902-7.296-7.296-14.995-14.144-22.803-20.851-0.954-0.947-1.939-1.85-3.046-2.65-32.102-27.040-68.141-49.133-107.053-65.248-43.479-18.010-89.693-28.39-136.599-30.701l-20.15-0.499c-53.789 0-107.055 10.618-156.75 31.2-49.691 20.582-94.868 50.72-132.9 88.749-38.033 38.035-68.166 83.213-88.75 132.902-18.010 43.478-28.39 89.693-30.7 136.598l-0.5 20.15c0 53.789 10.616 107.055 31.2 156.75 20.584 49.692 50.717 94.868 88.75 132.9s83.209 68.166 132.9 88.749c49.695 20.584 102.961 31.2 156.75 31.2l20.15-0.5c46.906-2.31 93.12-12.69 136.599-30.7 49.69-20.584 94.867-50.717 132.902-88.749 38.029-38.033 68.166-83.209 88.749-132.9 20.582-49.695 31.2-102.961 31.2-156.75l-0.499-20.15zM665.6 533.35c0-40.737-16.192-79.844-45-108.65-28.804-28.795-67.871-44.95-108.6-44.95s-79.796 16.155-108.6 44.95c-28.805 28.806-45 67.913-45 108.65 0.004 40.731 16.198 79.798 45 108.6 28.805 28.801 67.867 45 108.6 45s79.795-16.2 108.6-45c28.802-28.801 44.994-67.869 45-108.6z" />
<glyph unicode="&#xe92e;" glyph-name="head_bookmark" d="M742.4 661.35c-0.006 38.468-15.296 75.348-42.502 102.55-27.2 27.201-64.079 42.495-102.548 42.5h-170.7c-38.468-0.004-75.348-15.299-102.55-42.5s-42.495-64.082-42.5-102.55v-549.497l216.2 144.096 3.35 1.901c8.020 3.757 17.53 3.11 25.050-1.901l216.2-144.096v549.497zM793.6 64c0-9.434-5.19-18.093-13.498-22.554-8.326-4.454-18.445-3.981-26.304 1.254l-241.798 161.197-241.8-161.197c-7.855-5.235-17.976-5.709-26.3-1.254-8.31 4.461-13.5 13.12-13.5 22.554v597.35c0.004 52.047 20.697 101.947 57.5 138.75s86.703 57.495 138.749 57.5h170.7c52.045-0.004 101.946-20.696 138.753-57.5 36.8-36.803 57.491-86.703 57.498-138.75v-597.35z" />
<glyph unicode="&#xe92f;" glyph-name="head_card" d="M869.901 671.436c-2.323 23.45-12.691 45.492-29.504 62.3-19.2 19.204-45.242 30-72.397 30h-512c-27.158 0-53.196-10.796-72.4-30s-30-45.242-30-72.4v-426.648c0-27.155 10.801-53.197 30-72.403 19.204-19.2 45.242-29.997 72.4-29.997l522.099 0.499c23.45 2.323 45.491 12.691 62.298 29.498 16.8 16.8 27.174 38.816 29.504 62.253l0.499 10.15v426.648l-0.499 10.1zM725.35 302.938c14.131-0.013 25.6-11.469 25.6-25.6 0-14.138-11.469-25.594-25.6-25.6h-426.701c-14.131 0.006-25.6 11.462-25.6 25.6 0 14.131 11.469 25.587 25.6 25.6h426.701zM443.75 533.336c0 15.842-6.298 31.048-17.5 42.25-9.803 9.804-22.673 15.843-36.349 17.2l-5.9 0.3c-15.843 0-31.048-6.298-42.25-17.5s-17.5-26.408-17.5-42.25l0.3-5.9c1.357-13.676 7.397-26.547 17.2-36.35 11.203-11.202 26.408-17.5 42.25-17.5s31.048 6.298 42.25 17.5c11.203 11.203 17.5 26.408 17.5 42.25zM725.35 473.585l5.152-0.5c11.661-2.39 20.448-12.731 20.448-25.1-0.006-12.36-8.794-22.66-20.448-25.050l-5.152-0.55h-85.35c-14.133 0-25.591 11.469-25.6 25.6 0 14.139 11.462 25.6 25.6 25.6h85.35zM725.35 644.285l5.152-0.55c11.654-2.39 20.442-12.69 20.448-25.050 0-12.369-8.787-22.71-20.448-25.1l-5.152-0.5h-85.35c-14.138 0-25.6 11.462-25.6 25.6 0.009 14.131 11.467 25.6 25.6 25.6h85.35zM494.95 533.336c0-29.421-11.696-57.646-32.5-78.45s-49.028-32.5-78.45-32.5c-29.421 0-57.646 11.696-78.45 32.5-18.207 18.207-29.432 42.099-31.95 67.5l-0.55 10.95c0 29.421 11.696 57.646 32.5 78.45s49.028 32.5 78.45 32.5l10.95-0.55c25.401-2.518 49.293-13.743 67.5-31.95 20.804-20.804 32.5-49.028 32.5-78.45zM921.6 234.688l-0.749-15.2c-3.494-35.162-19.046-68.25-44.25-93.453-25.197-25.19-58.253-40.704-93.402-44.198l-15.2-0.749h-512c-40.73 0-79.796 16.154-108.6 44.947-28.805 28.806-45 67.91-45 108.653v426.648c0 40.737 16.195 79.795 45 108.6s67.863 45 108.6 45h512c40.736 0 79.795-16.195 108.602-45s44.998-67.862 44.998-108.6v-426.648z" />
<glyph unicode="&#xe930;" glyph-name="head_language" d="M355.55 474.3c0.894 25.524 3.084 50.922 6.55 76.1h-193.5c-9.825-32.943-15-67.399-15-102.4l0.45-17.6c1.414-28.77 6.283-57.24 14.5-84.8h193.55c-4.654 33.812-7 68.021-7 102.4l0.45 26.3zM423.45 294.4c16.16-71.808 43.615-140.87 81.6-204.602 2.316-0.045 4.631-0.198 6.95-0.198l6.9 0.198c37.992 63.738 65.489 132.781 81.65 204.602h-177.1zM188.25 294.4c17.558-37.011 41.272-70.822 70.3-99.853 33.28-33.28 72.819-59.635 116.3-77.645 21.856-9.056 44.504-15.885 67.6-20.454-33.082 62.445-57.062 129.107-71.45 197.952h-182.75zM652.998 294.4c-14.387-68.851-38.411-135.501-71.498-197.952 23.112 4.57 45.779 11.392 67.652 20.454 43.482 18.010 83.021 44.365 116.301 77.645 29.024 29.030 52.742 62.842 70.298 99.853h-182.752zM581.5 799.599c33.098-62.459 57.108-129.132 71.498-198h182.803c-17.414 36.713-41.069 70.569-70.349 99.85-50.592 50.592-114.778 84.476-183.953 98.15zM505.050 806.25c-37.997-63.738-65.437-132.827-81.6-204.65h177.1c-16.164 71.832-43.647 140.906-81.65 204.65-2.298 0.044-4.597 0.15-6.9 0.15l-6.95-0.15zM442.45 799.599c-69.157-13.681-133.32-47.569-183.9-98.15-29.281-29.281-52.935-63.137-70.349-99.85h182.8c14.39 68.861 38.357 135.546 71.45 198zM406.7 423.5c0.916-26.15 3.341-52.152 7.15-77.9h196.3c4.998 33.777 7.55 67.996 7.55 102.4s-2.552 68.623-7.55 102.4h-196.3c-4.997-33.777-7.55-67.995-7.55-102.4l0.4-24.5zM668.902 447.999c0-34.378-2.349-68.588-7.002-102.4h193.549c8.218 27.56 13.088 56.030 14.502 84.8l0.448 17.6c0 35.001-5.178 69.457-15.002 102.4h-193.498c4.653-33.812 7.002-68.021 7.002-102.4zM921.101 427.85c-2.31-46.906-12.691-93.12-30.701-136.598-20.582-49.69-50.72-94.867-88.749-132.902-38.035-38.029-83.213-68.166-132.902-88.749-40.893-16.941-84.217-26.976-128.249-30.048-3.764-1.107-7.725-1.402-11.65-0.704l-16.85-0.448c-5.642 0-11.274 0.218-16.9 0.448-3.925-0.691-7.888-0.41-11.65 0.704-44.015 3.072-87.322 13.114-128.2 30.048-49.691 20.582-94.868 50.72-132.9 88.749-38.033 38.035-68.166 83.213-88.75 132.902-18.010 43.478-28.39 89.693-30.7 136.598l-0.5 20.15c0 108.633 43.135 212.835 119.95 289.651 70.067 70.067 162.935 111.951 261.15 118.8 3.748 1.096 7.691 1.388 11.6 0.7 5.62 0.232 11.252 0.45 16.9 0.45l16.85-0.45c3.908 0.696 7.85 0.39 11.6-0.7 98.234-6.838 191.121-48.722 261.201-118.8 76.813-76.815 119.949-181.018 119.949-289.651l-0.499-20.15z" />
<glyph unicode="&#xe931;" glyph-name="head_logout" d="M698.701 594.084c8.749 8.75 22.259 9.868 32.198 3.3l4-3.3 128-128c4.794-4.801 7.501-11.315 7.501-18.1-0.006-6.783-2.701-13.303-7.501-18.1l-128-128.002c-9.997-9.984-26.202-9.984-36.198 0-9.997 9.997-9.99 26.204 0 36.202l84.301 84.3h-450.202c-14.133 0-25.591 11.469-25.6 25.6 0 14.139 11.462 25.6 25.6 25.6h450.202l-84.301 84.3-3.302 4.050c-6.541 9.932-5.434 23.409 3.302 32.15zM571.75 618.684v85.3c0 15.839-6.303 31.049-17.5 42.25-9.803 9.803-22.675 15.843-36.35 17.2l-5.9 0.3h-298.65c-15.842 0-31.048-6.298-42.25-17.5s-17.5-26.408-17.5-42.25v-512.003c0.004-15.827 6.307-31.002 17.5-42.195 11.202-11.206 26.408-17.504 42.25-17.504h298.65c15.843 0 31.048 6.298 42.25 17.504 11.188 11.194 17.496 26.368 17.5 42.195v85.35c0 14.144 11.462 25.6 25.6 25.6 14.131-0.006 25.6-11.462 25.6-25.6v-85.35c-0.004-29.414-11.7-57.645-32.5-78.445-20.803-20.8-49.032-32.454-78.45-32.454h-298.65c-29.413 0-57.647 11.661-78.45 32.454-20.8 20.8-32.495 49.030-32.5 78.445v512.003c0 29.421 11.696 57.646 32.5 78.45s49.029 32.5 78.45 32.5h298.65l10.95-0.55c25.4-2.518 49.293-13.743 67.5-31.95 20.799-20.803 32.5-49.032 32.5-78.45v-85.3c0-14.133-11.469-25.591-25.6-25.6-14.138 0-25.6 11.462-25.6 25.6z" />
<glyph unicode="&#xe932;" glyph-name="head_mail" d="M870.4 613.514l-344.2-229.5c-8.595-5.725-19.804-5.725-28.4 0l-344.2 229.5v-378.851c0-15.84 6.298-31.046 17.5-42.246s26.412-17.504 42.25-17.504h597.299c15.84 0 31.046 6.304 42.253 17.504 11.2 11.2 17.498 26.406 17.498 42.246v378.851zM207.45 720.764c-13.681-1.354-26.543-7.393-36.35-17.2-8.138-8.138-13.674-18.381-16.1-29.45l357-238 356.947 238c-2.426 11.065-7.91 21.315-16.045 29.45-11.206 11.203-26.413 17.5-42.253 17.5l-603.199-0.3zM921.6 234.662c0-29.421-11.693-57.645-32.499-78.451-20.806-20.794-49.030-32.499-78.451-32.499h-597.299c-29.418 0-57.647 11.706-78.45 32.499-20.804 20.806-32.5 49.030-32.5 78.451v426.652c0 29.421 11.696 57.645 32.5 78.45s49.028 32.5 78.45 32.5h597.299c29.421 0 57.645-11.696 78.451-32.5s32.499-49.029 32.499-78.45v-426.652z" />
<glyph unicode="&#xe933;" glyph-name="download" d="M127.98 149.331v85.312c0 23.565 19.123 42.688 42.687 42.688s42.687-19.123 42.687-42.688v-85.312c0-11.315 4.499-22.182 12.5-30.189 7.994-7.981 18.826-12.493 30.125-12.499h512.001c11.309 0 22.189 4.506 30.189 12.499 8 8.006 12.499 18.874 12.499 30.189v85.312c0 23.565 19.123 42.688 42.688 42.688 23.552-0.013 42.624-19.13 42.624-42.688v-85.312c0-33.946-13.498-66.496-37.504-90.496-24-24-56.557-37.504-90.496-37.504h-512.001c-33.94 0.006-66.5 13.504-90.5 37.504-23.998 24-37.5 56.557-37.5 90.496zM469.354 789.332c0 23.557 19.071 42.676 42.625 42.688 23.564 0 42.687-19.124 42.687-42.688v-409l140.501 140.5c16.659 16.659 43.648 16.652 60.314 0 16.659-16.662 16.659-43.65 0-60.312l-213.315-213.377c-8.001-7.994-18.877-12.499-30.188-12.499-11.299 0.006-22.131 4.518-30.125 12.499l-213.375 213.377 30.188 30.125 30.188 30.188 140.5-140.5v409zM268.479 520.832c16.662 16.662 43.713 16.662 60.375 0l-60.375-60.312c-16.638 16.66-16.645 43.656 0 60.312z" />
<glyph unicode="&#xe934;" glyph-name="filter" d="M842.688 675.313v60.687h-618.688v-63l0.938-9.812c1.807-9.658 6.243-18.696 12.938-26.062l191.124-210.25c5.355-5.89 8.313-13.602 8.313-21.562v-318.247l192 64.058v275.564c0.005 8.479 3.379 16.629 9.375 22.625l188.378 188.312 3.494 3.937c7.776 9.482 12.122 21.384 12.128 33.75zM906.688 675.313c-0.006-31.105-12.384-60.942-34.374-82.938l-179.002-178.938v-285.437c0-13.773-8.806-26.022-21.875-30.374l-255.999-85.312c-9.751-3.245-20.473-1.632-28.812 4.371-8.345 6.016-13.313 15.718-13.313 26.003v350.312l-182.813 201.063c-17.18 18.902-27.653 42.822-30 68.062l-0.5 10.875v95c0 17.673 14.327 32 32 32h682.688c17.664-0.012 32-14.334 32-32v-92.687z" />
<glyph unicode="&#xe935;" glyph-name="time-filter" d="M810.669 448h-597.315v-298.688c0.005-11.309 4.503-22.125 12.5-30.125 7.997-7.994 18.817-12.493 30.125-12.499h512.002c11.315 0 22.182 4.499 30.189 12.499 7.987 7.994 12.493 18.822 12.499 30.125v298.688zM639.979 661.313v42.687h-256v-42.687c-0.011-23.548-19.077-42.614-42.625-42.625-23.557 0-42.676 19.071-42.687 42.625v42.687h-42.688c-11.303-0.006-22.129-4.51-30.125-12.5-8.001-8.002-12.5-18.872-12.5-30.188v-128h597.315v128c0 11.316-4.499 22.186-12.499 30.188-8.006 8.001-18.874 12.5-30.189 12.5h-42.624v-42.687c-0.013-23.555-19.136-42.625-42.688-42.625-23.558 0-42.678 19.071-42.69 42.625zM895.981 149.312c-0.006-33.939-13.504-66.502-37.504-90.502-24-23.987-56.557-37.498-90.496-37.498h-512.002c-33.94 0.006-66.5 13.498-90.5 37.498s-37.494 56.563-37.5 90.502v512.001c0 33.938 13.508 66.497 37.5 90.5 24 24 56.56 37.494 90.5 37.5h42.688v42.687c0 23.564 19.123 42.687 42.687 42.687 23.555-0.011 42.625-19.13 42.625-42.687v-42.687h256v42.687c0 23.564 19.125 42.687 42.69 42.687s42.688-19.123 42.688-42.687v-42.687h42.624c33.946 0 66.496-13.496 90.496-37.5 24.006-24.004 37.504-56.552 37.504-90.5v-512.001z" />
<glyph unicode="&#xe936;" glyph-name="ascending" d="M665.363 503.137h-543.507c-28.277 0-51.2-22.923-51.2-51.2s22.923-51.2 51.2-51.2h543.507c28.275 0 51.2 22.923 51.2 51.2s-22.925 51.2-51.2 51.2zM901.67 243.2h-779.814c-28.277 0-51.2-22.925-51.2-51.2v0c0-28.275 22.923-51.2 51.2-51.2h779.814c28.282 0 51.2 22.925 51.2 51.2s-22.918 51.2-51.2 51.2zM358.164 763.076h-236.308c-28.277 0-51.2-22.924-51.2-51.2s22.923-51.2 51.2-51.2h236.308c28.277 0 51.2 22.923 51.2 51.2s-22.923 51.2-51.2 51.2z" />
<glyph unicode="&#xe937;" glyph-name="nav_me" d="M512 853.333c-223.859 0-405.333-181.474-405.333-405.333 0-73.864 19.738-143.053 54.213-202.65 5.9-10.202 2.415-23.251-7.784-29.152s-23.249-2.413-29.148 7.789c-38.131 65.914-59.948 142.448-59.948 224.013 0 247.423 200.577 448 448 448s448-200.577 448-448c0-81.565-21.818-158.099-59.949-224.013-5.901-10.202-18.95-13.69-29.146-7.789-10.202 5.901-13.683 18.95-7.782 29.152 34.47 59.597 54.208 128.785 54.208 202.65 0 223.859-181.472 405.333-405.331 405.333zM192.065 164.269c-0.24-0.243-0.473-0.493-0.699-0.749-3.546-3.974-5.349-8.966-5.399-13.978-0.054-5.459 1.974-10.938 6.098-15.142 81.284-82.918 194.616-134.4 319.935-134.4s238.65 51.482 319.936 134.4c1.92 1.958 3.386 4.186 4.397 6.566 0.89 2.093 1.434 4.301 1.626 6.534 0.512 5.99-1.504 12.16-6.022 16.768-81.286 82.912-194.618 134.4-319.936 134.4s-238.652-51.488-319.935-134.4zM512 42.669c-105.67 0-201.868 40.41-274.036 106.662 72.168 66.259 168.366 106.669 274.036 106.669s201.869-40.41 274.035-106.669c-72.166-66.253-168.365-106.662-274.035-106.662zM362.667 533.333c0 82.474 66.859 149.333 149.333 149.333s149.331-66.859 149.331-149.333c0-82.475-66.857-149.334-149.331-149.334s-149.333 66.859-149.333 149.334zM512 725.333c-106.038 0-192-85.962-192-192s85.962-192 192-192c106.038 0 192 85.961 192 192s-85.962 192-192 192z" />
</font>
</defs>
</svg>
